Free JAV Japan erotic videos and more

Reply

The Violation Of Violet Blue (2002)

« Older   Newer »
nailz
view post Posted on 18/3/2011, 12:10 QUOTE...




image

Uptight goody two-shoes Violet Blue wants nothing to do with the hardcore lesbians that hang out at her school,but her life is about to change when she accidentally enters the "bad girl" bathroom.Watch as Violet gets brutally violated by broomsticks,mop handles,and even a toilet plunger-in what could be the most extreme VIOLATION yet!

also starring:
Flick Shagwell
Kaylynn
Keegan Skky
Kiki D'Aire
Lola
Noname Jane
Shelbee Myne

image

tech info:
Video: DivX 5 352x240 29.97fps [Video]
Audio: MPEG Audio Layer 3 44100Hz stereo 127kbps [Audio]
Format : AVI
Format/Info : Audio Video Interleave
File size : 673 MiB
Duration : 1h 12mn
Overall bit rate : 1 291 Kbps
Writing library : VirtualDub build 13870/release

Video
ID : 0
Format : MPEG-4 Visual
Format settings, BVOP : 1
Format settings, QPel : No
Format settings, GMC : 2 warppoints
Format settings, Matrix : Default (H.263)
Muxing mode : Packed bitstream
Codec ID : DX50
Codec ID/Hint : DivX 5
Duration : 1h 12mn
Bit rate : 1 152 Kbps
Width : 352 pixels
Height : 240 pixels
Display aspect ratio : 3:2
Frame rate : 29.970 fps
Standard : NTSC
Color space : YUV
Chroma subsampling : 4:2:0
Bit depth : 8 bits
Scan type : Progressive
Compression mode : Lossy
Bits/(Pixel*Frame) : 0.455
Stream size : 600 MiB (89%)
Writing library : DivX 5.0.2 (UTC 2002-05-16)

Audio
ID : 1
Format : MPEG Audio
Format version : Version 1
Format profile : Layer 3
Mode : Joint stereo
Mode extension : MS Stereo
Codec ID : 55
Codec ID/Hint : MP3
Duration : 1h 12mn
Bit rate mode : Constant
Bit rate : 128 Kbps
Channel(s) : 2 channels
Sampling rate : 44.1 KHz
Compression mode : Lossy
Stream size : 66.6 MiB (10%)
Alignment : Split accross interleaves
Interleave, duration : 33 ms (1.00 video frame)
Interleave, preload duration : 466 ms

400 MB interchangeable links w/ 5% RAR recovery record
download:
www.fileserve.com/file/pxbhW9d/VOVB.part1.rar
www.fileserve.com/file/th2sEPB/VOVB.part2.rar

www.zshare.net/download/875352396d554205/
www.zshare.net/download/87535183cc8a6982/

http://uploading.com/files/429a8a62/VOVB.part2.rar/
http://uploading.com/files/e46c4a5e/VOVB.part1.rar/
 
Top
0 replies since 18/3/2011, 12:10
 
Reply